Koode (2018) 720p Malayalam (ORG) HDRip x264 AAC ESub by Full4mov...

  • Category Movies
  • Type HD
  • Language Malayalam
  • Total size 1.5 GB
  • Uploaded By shmasti
  • Downloads 338
  • Last checked 2 months ago
  • Date uploaded 3 months ago
  • Seeders 6
  • Leechers 3

Koode

DramaRomance

Joshua, who has been working in Dubai since the age of 15, gets a call from his family to return home. How he, with the magical support of his sister Jenny, figures to live life in between the joy, pressures, expectations and tragedy is what Koode is about.

Infohash : 58061DA479BDFC41FD7E9DB09E32031F20C8CABA



General
Complete name : Koode (2018) 720p Malayalam (ORG) HDRip x264 AAC ESub by Full4movies.mkv
Format : Matroska
Format version : Version 4 / Version 2
File size : 1.50 GiB
Duration : 2 h 34 min
Overall bit rate : 1 389 kb/s
Movie name : www.Full4movies.co
Encoded date : UTC 2018-10-20 18:21:38
Writing application : mkvmerge v8.1.0 ('Psychedelic Postcard') 32bit
Writing library : libebml v1.3.1 + libmatroska v1.4.2

Video
ID : 1
Format : AVC
Format/Info : Advanced Video Codec
Format profile : [email protected]
Format settings, CABAC : Yes
Format settings, RefFrames : 4 frames
Codec ID : V_MPEG4/ISO/AVC
Duration : 2 h 34 min
Bit rate : 1 204 kb/s
Width : 1 280 pixels
Height : 544 pixels
Display aspect ratio : 2.35:1
Frame rate mode : Constant
Frame rate : 23.976 (24000/1001) FPS
Color space : YUV
Chroma subsampling : 4:2:0
Bit depth : 8 bits
Scan type : Progressive
Bits/(Pixel*Frame) : 0.072
Stream size : 1.29 GiB (86%)
Title : www.Full4movies.co
Writing library : x264 core 155 r2901 7d0ff22
Default : Yes
Forced : No
Color range : Limited
Color primaries : BT.601 NTSC
Transfer characteristics : BT.709
Matrix coefficients : BT.601

Audio
ID : 2
Format : AAC
Format/Info : Advanced Audio Codec
Format profile : LC
Codec ID : A_AAC
Duration : 2 h 34 min
Bit rate : 192 kb/s
Channel(s) : 6 channels
Channel positions : Front: L C R, Side: L R, LFE
Sampling rate : 48.0 kHz
Frame rate : 46.875 FPS (1024 SPF)
Compression mode : Lossy
Stream size : 212 MiB (14%)
Language : Malayalam
Default : Yes
Forced : No

Text
ID : 3
Format : UTF-8
Codec ID : S_TEXT/UTF8
Codec ID/Info : UTF-8 Plain Text
Duration : 2 h 30 min
Bit rate : 10 b/s
Count of elements : 375
Stream size : 12.1 KiB (0%)
Language : English
Default : Yes
Forced : No

Screen Shoots

Files:

  • Koode (2018) 720p Malayalam (ORG) HDRip x264 AAC ESub by Full4movies.mkv (1.5 GB)

There are currently no comments. Feel free to leave one :)

Code:

  • udp://tracker.coppersurfer.tk:6969/announce
  • udp://tracker.leechers-paradise.org:6969/announce
  • udp://tracker.pirateparty.gr:6969/announce
  • udp://tracker.coppersurfer.tk:6969
  • udp://open.demonii.si:1337/announce
  • udp://tracker.tiny-vps.com:6969/announce
  • udp://9.rarbg.me:2710/announce
  • udp://9.rarbg.to:2710/announce
  • udp://public.popcorn-tracker.org:6969/announce
  • udp://tracker.torrent.eu.org:451/announce
  • udp://tracker.vanitycore.co:6969/announce
  • udp://ipv4.tracker.harry.lu:80/announce
  • udp://tracker.opentrackr.org:1337/announce
  • udp://exodus.desync.com:6969/announce
  • udp://tracker.cypherpunks.ru:6969/announce
Sitemaptrumbo filme ansehen kostenlos und legal | School Rumble | Parent Figures in Adventures of Huckleberry Finn